» » Hiromi Ohta - Tezukuri No Gashuu

Hiromi Ohta - Tezukuri No Gashuu album download

Sony Music Distribution SRCL-1813.

Shop Tezukuri No Gashuu.

TOP Music CD・DVD Japanese Pop Hiromi Ota Tezukuri No Gashuu. Hiromi Ota. tions Page. Listen to Sample Music. Price(tax incl. Member Price(tax incl.

Hiromi Ohta releases a new title, album. the price for Tezukuri No Gashu drops. Sony Music releases a new product. the price for Tezukuri No Gashu drops below. US$. Our privacy statement.

Suiyobi no yakusoku" PERFORMER "Hiromi Ohta" INDEX 00 15:28:00 INDEX 01 15:30:00 TRACK 07 AUDIO TITLE "Cotton Handkerchief" PERFORMER "Hiromi Ohta" INDEX 00 19:00:62 INDEX 01 19:02:62 TRACK 08 AUDIO TITLE "Yureru aijo" PERFORMER "Hiromi Ohta" INDEX 00 22:49:57 INDEX 01 22:51:57 TRACK 09 AUDIO TITLE "Akai High Heel" PERFORMER "Hiromi. TRACK 19 AUDIO TITLE "Koibito tachi no 100 no itsuwari" PERFORMER "Hiromi Ohta" INDEX 00 65:45:71 INDEX 01 65:47:71 TRACK 20 AUDIO TITLE "Shiki emaki" PERFORMER "Hiromi Ohta" INDEX 00 69:49:59 INDEX 01 69:51:59 TRACK 21 AUDIO TITLE "Shitsuren majutsu shi" PERFORMER "Hiromi Ohta" INDEX 00 73:48:62 INDEX 01 73:50:62.

Ohta Hiromi (太田裕美) is a Japanese pop singer-songwriter. Married Name: Fukuoka Hiromi (福岡弘美). Birthday: January 22, 1955. Birthplace: Arakawa-ku, Tokyo, Japan. Blood Type: A. Ohta Hiromi got her start in music when she started to learn the piano at age 8. Then in 1967, while in middle school, Ohta began to study vocal music at Ueno Gakuen Middle School

Hiromi Ohta - Tezukuri No Gashuu album download

Performer: Hiromi Ohta

Title: Tezukuri No Gashuu

Style: Japanese Traditions

Genre: International

Size MP3: 1805 mb

Size FLAC: 1188 mb

Rating: 4.7 / 5

Votes: 494

Other Formats: FLAC AA VQF ASF AIFF WAV

Related Music Albums