» » Uli Jenneßen / Rudi Mahall / Olaf Rupp - Oljonek

Uli Jenneßen / Rudi Mahall / Olaf Rupp - Oljonek album download

Jenneßen, Rupp, Mahall ‎– Oljonek. Label: Audiosemantics ‎– none. Bass Clarinet – Rudi Mahall. Drums – Uli Jenneßen. Electric Guitar – Olaf Rupp. Recorded spring 2010.

On this page you can not listen to mp3 music free or download album or mp3 track to your PC, phone or tablet. All materials are provided for educational purposes. Released at: This album was released on the label Audiosemantics (catalog number none). This album was released in 2011 year. Format of the release is.

Bitrate (quality): 192256320. mp3. 1. Meiner Ist Kleiner.

Trinkle Tinkle" PERFORMER "Mahall, Dorner, Roder, Jenneben" INDEX 01 00:00:00 TRACK 03 AUDIO TITLE "Murx" PERFORMER "Mahall, Dorner, Roder, Jenneben" INDEX 00 07:08:64 FILE "03 Murx. wav" WAVE INDEX 01 00:00:00 TRACK 04 AUDIO TITLE "Most Wanted. Gallops Gallop" PERFORMER "Mahall, Dorner, Roder, Jenneben" INDEX 00 02:34:74 FILE "04 Most Wanted. wav" WAVE INDEX 01 00:00:00 TRACK 05 AUDIO TITLE "Heiner und Hannelore" PERFORMER "Mahall, Dorner, Roder, Jenneben" INDEX 00 07:47:10 FILE. Bass Clarinet – Rudi Mahall Double Bass – Jan Roder Drums – Uli Jenneßen Trumpet – Axel Dörner.

Track List

Title/Composer Performer Time
1 Dniepropetrowsk Uli Jenneßen / Rudi Mahall / Olaf Rupp 7:24
2 Razzo Uli Jenneßen / Rudi Mahall / Olaf Rupp 5:39
3 Oljonek Uli Jenneßen / Rudi Mahall / Olaf Rupp 4:52
4 Andalucia Uli Jenneßen / Rudi Mahall / Olaf Rupp 2:43
5 Arbeit an Der Groben Materie Uli Jenneßen / Rudi Mahall / Olaf Rupp 3:18
6 Die Zone Uli Jenneßen / Rudi Mahall / Olaf Rupp 6:01
7 Abstieg 2010 Uli Jenneßen / Rudi Mahall / Olaf Rupp 5:51
8 Danach Uli Jenneßen / Rudi Mahall / Olaf Rupp 2:11
9 Karsten Jankker Uli Jenneßen / Rudi Mahall / Olaf Rupp 6:28
10 Chaorit Uli Jenneßen / Rudi Mahall / Olaf Rupp 6:19
11 Les Étrangers Souffrants Uli Jenneßen / Rudi Mahall / Olaf Rupp 5:53
12 Crash Uli Jenneßen / Rudi Mahall / Olaf Rupp 6:46

Uli Jenneßen / Rudi Mahall / Olaf Rupp - Oljonek album download

Performer: Uli Jenneßen / Rudi Mahall / Olaf Rupp

Title: Oljonek

Genre: Jazz

Size MP3: 1667 mb

Size FLAC: 1471 mb

Rating: 4.9 / 5

Votes: 927

Other Formats: AAC AHX MP2 AU MPC VQF

Related Music Albums