» » Fred Enzalde & the Hollywood/Sunset Bands - Jazz in California 1924-26

Fred Enzalde & the Hollywood/Sunset Bands - Jazz in California 1924-26 album download

October, 1924 - June, 1926. Fred Enzalde & the Hollywood/Sunset Bands. Jazz in California 1924-26.

1 –Fred Elizalde And His Cinderella Roof Orchestra That Certain Feeling 2 –Fred Elizalde And His Cinderella Roof Orchestra Boneyard Shuffle 3 –Fred Elizalde And His Cinderella Roof Orchestra How Many Times 4 –Fred Elizalde And His Cinderella Roof Orchestra How Many Times 5 –Fred Elizalde And His Cinderella Roof Orchestra Out Of My Dreams 6 –Fred Elizalde And His Cinderella Roof Orchestra. 26 –Ray Gill's Movieland Orchestra Poor Papa. The remainder of this CD features little-known bands active in Los Angeles during 1924-1926 that recorded for the Sunset label: Major & His Orchestra, the Lake Arrowhead Orchestra, the Trocadero Melody Boys, Eddie Frazier's Plantation Orchestra, Carlyle Stevenson's Bon Ton Orchestra (one of the few bands in which some of the personnel has been identified), Hank Frye's Virginia Hotel.

02:34) 26 Poor Papa (02:57). There is a lot of obscure material on this CD for 1920s collectors to enjoy. Pianist-arranger Fred Elizalde is best known (such as he is) for his work in England in the late '20s. Particularly obscure are the nine titles that he cut in Hollywood in June 1926, all with a five-horn nonet except his unaccompanied piano solo on "Siam Blues. The performances are superior hot dance band sides, including "That Certain Feeling" and "Boneyard Shuffle.

All the great songs and lyrics from the "Jazz In California: Fred Elizalde and the Hollywood/Sunset Bands, 1924-1926" album ont he Web's largest and most authoritative lyrics resource.

Jazz In California, 1924-1926. Fred Elizalde and the Hollywood/Sunset Bands 1924 - 1926. Exclusive discount for Prime members. Sample this album Artist - Artist (Sample).

Jazz In California, 1924-1926 Timeless Holland 2000. Fred Elizalde and His Orchestra Old Masters 1999.

wav" WAVE INDEX 01 00:00:00 TRACK 23 AUDIO TITLE "That Certain Party" PERFORMER "Fred Elizalde" INDEX 00 02:44:70 FILE "23 - That Certain Party. wav" WAVE INDEX 01 00:00:00 TRACK 24 AUDIO TITLE "Deep Elm" PERFORMER "Fred Elizalde" INDEX 00 02:55:45 FILE "24 - Deep El. av" WAVE INDEX 01 00:00:00.

Album · 1999 · 26 Songs. Show Me the Way to Go Home. Hank Frye and His Virginia Hotel Orchestra.

1928-1929: The Best of Fred Elizalde & His Anglo American Band. SongMeanings is a place for discussion and discovery.

Track List

Title/Composer Performer Time
1 That Certain Feeling George Gershwin / Ira Gershwin Fred Enzalde & the Hollywood/Sunset Bands feat: Fred Elizalde 2:42
2 Boneyard Shuffle Fred Enzalde & the Hollywood/Sunset Bands feat: Fred Elizalde 2:16
3 How Many Times Fred Enzalde & the Hollywood/Sunset Bands feat: Fred Elizalde 2:58
4 How Many Times Fred Enzalde & the Hollywood/Sunset Bands feat: Fred Elizalde 2:59
5 Out of My Dreams Oscar Hammerstein II / Richard Rodgers Fred Enzalde & the Hollywood/Sunset Bands feat: Fred Elizalde 3:07
6 Tonight's My Night With Baby Irving Caesar Fred Enzalde & the Hollywood/Sunset Bands feat: Fred Elizalde 2:15
7 Melancholy Weeps Fred Enzalde & the Hollywood/Sunset Bands feat: Fred Elizalde 2:36
8 Tickling Julie Fred Enzalde & the Hollywood/Sunset Bands feat: Fred Elizalde 2:36
9 Siam Blues Fred Enzalde & the Hollywood/Sunset Bands feat: Fred Elizalde 2:15
10 Blue Evening Blues Victor Burton / Art Kahn Fred Enzalde & the Hollywood/Sunset Bands 2:53
11 Hottest Man in Town Fred Enzalde & the Hollywood/Sunset Bands 3:00
12 Everything Is Hotsy-Totsy Now Fred Enzalde & the Hollywood/Sunset Bands 2:32
13 I Want to Be Happy George Gershwin Fred Enzalde & the Hollywood/Sunset Bands 2:44
14 Cheatin' on Me Lew Pollack / Jack Yellen Fred Enzalde & the Hollywood/Sunset Bands 2:37
15 Everything Is Hotsy-Totsy Now Fred Enzalde & the Hollywood/Sunset Bands 2:32
16 Charleston Mack Johnson Fred Enzalde & the Hollywood/Sunset Bands 2:10
17 Milenberg Joys Paul Mares / Jelly Roll Morton Fred Enzalde & the Hollywood/Sunset Bands 2:44
18 Yes Sir, That's My Baby Walter Donaldson / Gus Kahn Fred Enzalde & the Hollywood/Sunset Bands 2:33
19 Show Me the Way to Go Home Irving King Fred Enzalde & the Hollywood/Sunset Bands 2:52
20 Loud Speakin' Papa (You'd Better Speak Easy to Me) Lou Pollack / Jack Yellen Fred Enzalde & the Hollywood/Sunset Bands 2:43
21 Darktown Shuffle Earl Baker / Joe "Cornbread" Thomas Fred Enzalde & the Hollywood/Sunset Bands 2:38
22 I Love My Baby Harry Warren Fred Enzalde & the Hollywood/Sunset Bands 2:46
23 That Certain Party Walter Donaldson / Gus Kahn Fred Enzalde & the Hollywood/Sunset Bands 2:57
24 Deep Elm Willard Robison Fred Enzalde & the Hollywood/Sunset Bands 2:41
25 Everybody Stomp! Fred Enzalde & the Hollywood/Sunset Bands 2:34
26 Poor Papa Billy Rose Fred Enzalde & the Hollywood/Sunset Bands 2:56

Fred Enzalde & the Hollywood/Sunset Bands - Jazz in California 1924-26 album download

Performer: Fred Enzalde & the Hollywood/Sunset Bands

Title: Jazz in California 1924-26

Recording date: October, 1924 - June, 1926

Duration: 01:09:36

Genre: Jazz

Size MP3: 1906 mb

Size FLAC: 1671 mb

Rating: 4.8 / 5

Votes: 344

Other Formats: AAC MP2 MIDI AHX MMF XM

Related Music Albums